sellanyrolex.net
Inicio   -   Ayuda   -   Contacto   -   Últimos Torrents

Torrents
Documentales 842
Películas 11256
Películas HD 2068
Series 1961
   Episodios 22513
Series HD 244
   Episodios 2743
Juegos 2689
   PC 1736
Variados 1521
   Deportes 36
   Programas 592
   Videoclips 102
   Otros 722
Música MP3 3525
Total Torrents 57258

Información
Esta web no contiene ningún tipo de fichero almacenado.

Todos los archivos se comparten mediante el BitTorrent, un programa P2P de intercambio entre usuarios.



Descarga la última versión de uTorrent y baja a la máxima velocidad:
Pitbull - Feel This Moment (Ft. Christina Aguilera)
Total Descargas:  2.641 En Diciembre:  2.641

Fecha:  2016-09-19



Torrent:      Descargar         Tamaño:  52,42 MB
Descripción:

General
Complete name : Pitbull - Feel This Moment (Ft. Christina Aguilera) (1080p) x264 [VX].mp4
Format : MPEG-4
Format profile : Base Media / Version 2
Codec ID : mp42
File size : 47.5 MiB
Duration : 3mn 56s
Overall bit rate mode : Variable
Overall bit rate : 1 686 Kbps

Video
ID : 1
Format : AVC
Format/Info : Advanced Video Codec
Format profile : High@L4.0
Width : 1 920 pixels
Height : 1 080 pixels
Display aspect ratio : 16:9
Frame rate mode : Variable
Frame rate : 23.976 fps
Color space : YUV
Chroma subsampling : 4:2:0
Bit depth : 8 bits
Scan type : Progressive
Bits/(Pixel*Frame) : 0.031
Stream size : 43.8 MiB (92%)
Writing library : x264 core 129

Audio
Format : AAC
Duration : 3mn 56s
Bit rate mode : Variable
Bit rate : 125 Kbps
Channel(s) : 2 channels
Channel positions : Front: L R
Sampling rate : 48.0 KHz
Stream size : 3.52 MiB (7%)



Volver al índice de Variados







Datos legales


04:28:32
computer