Inicio   -   Ayuda   -   Contacto   -   Últimos Torrents

Torrents
Documentales842
Pel�culas11256
Pel�culas HD2068
Series1961
  Episodios22513
Series HD244
  Episodios2743
Juegos2689
  PC1736
Variados1521
  Deportes36
  Programas592
  Videoclips102
  Otros722
Música MP3 3525
Total Torrents57258

Informaci�n
Esta web no contiene ning�n tipo de fichero almacenado.

Todos los archivos se comparten mediante el BitTorrent, un programa P2P de intercambio entre usuarios.



Descarga la última versión de uTorrent y baja a la máxima velocidad:
Enrique Iglesias - Pitbull: Im A Freak
Total Descargas:  5.258 En Diciembre:  5.258

Fecha:  2016-07-05



Torrent:      Descargar         Tamaño:  63,53 MB
Descripción:

General

Format : MPEG-4
Format profile : Base Media
File size : 63.5 MiB
Duration : 3mn 54s
Overall bit rate mode : Variable
Overall bit rate : 2 268 Kbps

Video
Format : AVC
Format profile : Main@L3.1
Format settings, CABAC : Yes
Format settings, ReFrames : 3 frames
Duration : 3mn 52s
Source duration : 3mn 52s
Bit rate : 2 198 Kbps
Maximum bit rate : 3 506 Kbps
Width : 1 280 pixels
Height : 720 pixels
Display aspect ratio : 16:9
Frame rate mode : Variable
Frame rate : 23.976 fps
Stream size : 61.0 MiB (96%)
Title : Enrique Iglesias ft. Pitbull - I'm A Freak 720p x264 AAC E-Subs [GWC]

Audio
Format : AAC
Format profile : LC
Duration : 3mn 53s
Bit rate mode : Variable
Channel(s) : 2 channels
Sampling rate : 48.0 KHz
Stream size : 2.38 MiB
Language : English

Text
Format : Timed Text
Duration : 3mn 54s
Bit rate mode : Variable
Stream size : 2.55 KiB (0%)
Title : English Subtitle by [GWC]
Language : English



Volver al índice de Variados







Datos legales


00:02:47
computer