sellanyrolex.net
Inicio   -   Ayuda   -   Contacto   -   Últimos Torrents

Torrents
Documentales 842
Películas 11256
Películas HD 2068
Series 1961
   Episodios 22513
Series HD 244
   Episodios 2743
Juegos 2689
   PC 1736
Variados 1521
   Deportes 36
   Programas 592
   Videoclips 102
   Otros 722
Música MP3 3525
Total Torrents 57258

Información
Esta web no contiene ningún tipo de fichero almacenado.

Todos los archivos se comparten mediante el BitTorrent, un programa P2P de intercambio entre usuarios.



Descarga la última versión de uTorrent y baja a la máxima velocidad:
Fat Joe ft. Jennifer Lopez - Stressin
Total Descargas:  2.529 En Diciembre:  2.529

Fecha:  2016-04-01



Torrent:      Descargar         Tamaño:  127,93 MB
Descripción:

General
Complete name : Fat Joe ft. Jennifer Lopez - Stressin'
Format : MPEG-4
Format profile : Base Media
Codec ID : isom
File size : 128 MiB
Duration : 4mn 21s
Overall bit rate : 4 108 Kbps
MusicVid name : Stressin'
Performer : Fat Joe ft. Jennifer Lopez
Genre : HipHop
ContentType : Music Video
Recorded date : 2014
Copyright : Fat Joe & JLO
Cover : Yes
Rating : ***
Make : MeRaDil
oday : 17-10-2014 USA
releasetime : USA - october 17 - 2014
Part_ID : Sressin'

Video
ID : 1
Format : AVC
Format/Info : Advanced Video Codec
Format profile : High@L4.0
Format settings, CABAC : Yes
Format settings, ReFrames : 2 frames
Codec ID : avc1
Codec ID/Info : Advanced Video Coding
Duration : 4mn 21s
Bit rate : 3 846 Kbps
Width : 1 920 pixels
Height : 1 080 pixels
Display aspect ratio : 16:9
Frame rate mode : Variable
Frame rate : 23.976 fps
Minimum frame rate : 23.974 fps
Maximum frame rate : 23.981 fps
Color space : YUV
Chroma subsampling : 4:2:0
Bit depth : 8 bits
Scan type : Progressive
Bits/(Pixel*Frame) : 0.077
Stream size : 120 MiB (94%)

Audio
ID : 2
Format : AAC
Format/Info : Advanced Audio Codec
Format profile : LC
Codec ID : 40
Duration : 4mn 21s
Bit rate mode : Constant
Bit rate : 256 Kbps
Channel(s) : 2 channels
Channel positions : Front: L R
Sampling rate : 44.1 KHz
Compression mode : Lossy
Stream size : 7.97 MiB (6%)

Fat Joe * Jennifer Lopez * HipHop * Rap



Volver al índice de Variados







Datos legales


04:29:52
computer